ffmpeg ac3 options 6

Metadata: Chapter #0:17: start 3369.657000, end 3484.731000 It's a unsupported feature. The optional FFmpeg library allows Audacity to import and export a much larger range of audio formats including M4A (AAC), AC3, AMR (narrow band) and WMA and also to import audio from most video files.. Because of software patents, Audacity cannot include the FFmpeg software or distribute it from its own websites. Metadata: Chapter #0:18: start 3484.731000, end 3717.964000 FOR %%f IN (*.mkv) DO C:\ffmpeg\bin\ffmpeg.exe -i “%%f” -map 0 -vcodec copy -scodec copy -acodec ac3 -b:a 640k “%%~nf”-AC3.mkv. Hello. And again, i recommend you to use the libdcadec decoder instead of the internal dca decoder. Creative Commons Attribution-ShareAlike License. creation_time : 2015-04-06 09:50:07, Duration: 00:04:18.13, start: 0.000000, bitrate: 7533 kb/s, Stream #0:0(eng): Video: h264 (High), yuv420p, 1920x1080, SAR 1:1 DAR 16:9, 23.98 fps, 23.98 tbr, 1k tbn, 47.95 tbc (default) It's like instead of doing a copy it's modifying them too. libavformat 56. 46.100 / 6. Note: encoder : Lavf56.40.101 Metadata: Chapter #0:24: start 4805.926000, end 4936.307000 It appears to ignore the 6 in the -ac 6 and just down mixes to 2 tracks. I'm currently using ffmpeg to convert my mkv files with e-ac3 audio to ac3, with this command line: ffmpeg -hwaccel auto -y -i "input.mkv" -map Input #0, matroska,webm, from 'sample.mkv': title : Sample and click on the mage between the two adds. Stream specifiers are used to precisely specify which stream(s) a given option belongs to. In most cases, set top boxes and receivers will treat them the same, but by specifying mode 63, you've forced the metadata to match the standard Dolby metadata for an ITU 5.1 program stream. You can also create a command batch file for a batch audio conversion to AC3. Example for 2 separate .srt subtitle files: Subtitles may be rendered permanently into the video stream by specifying a complex filter on the command line: This can be interpreted as "take all video streams from the first listed input, then all subtitle streams from the first listed input, and overlay the latter on the former to produce a single video stream that replaces all consumed streams". The full command line to search relatively deeply for a subtitle stream and then render it in green on black into an h264 output video might look as follows: From Wikibooks, open books for an open world, Set Subtitles Character Encoding Conversion, FFmpeg command-line examples to importing subtitle files, Import a subtitle file (copy video/audio streams, without re-encoding), Import subtitle and re-encode video/audio streams, https://en.wikibooks.org/w/index.php?title=FFMPEG_An_Intermediate_Guide/subtitle_options&oldid=3697876. If you try to import ANSI subtitle files with a newer version of FFmpeg without using of "-sub_charenc" you can get an error message like: eng - English Reading option '-xerror' ... matched as option 'xerror' (exit on … Metadata: Stream #0:6(hun): Audio: ac3, 48000 Hz, 5.1(side), fltp, 448 kb/s 2.101 But wait, you’ll say, all these commands and copying the batch file makes my head spin, I want something easier. ffmpeg_apollolake-6.1_4.2.1-16.spk; ffmpeg_aarch64-6.1_4.2.1-16.spk; ffmpeg_x64-6.1_4.2.1-16.spk; Every scenario I have tested so far seems to be working correctly on my DS1812+ The ffmpeg shell script continues to create orphan ffmpeg processes, however; so I decided to use a symlink instead. 31.100 / 54. Stream #0:9(fre): Subtitle: hdmv_pgs_subtitle, 1920x1080 The ac3_fixed encoder is not the default codec for any of the output formats, so it must be specified explicitly using the option -acodec ac3_fixed in order to use it. Input #0, matroska,webm, from 'd:\downloads\dts_hd_master_audio_sound_check_7_1_lossless-DWEU.mkv': encoder : libebml v1.3.0 + libmatroska v1.4.1 Chase Patterson gmail.com> writes: So, the command I figured out (ffmpeg -i Session.flac -s:a 48k -ab. Visit the Trac open source project athttp://trac.edgewall.org/, Options -ac, -ar and -sample_fmt do not behave as documented / use another stream_specifier than -codec, https://ffmpeg.org/ffmpeg-all.html#Audio-Options, https://ffmpeg.org/ffmpeg-all.html#Main-options. On 2012-05-27, at 11:36 AM, Chase Patterson wrote: On 2012-05-27, at 2:13 PM, "Andy Furniss" <, Sorry for bringing this thread back from the dead, but I have a couple. Note that both of these options must appear on the command line before the specification of the input via -i. Metadata: Chapter #0:8: start 1632.255000, end 2070.109000 When you set the subtitle encoding, don't forget to also set a subtitle codec (see below). Metadata: Chapter #0:12: start 2457.580000, end 2634.506000 You can even add more commands to the batch file, for example delete the original file after the conversion. Note that a subtitle stream need not be present for the entirety of the video and may first appear only when the first subtitled dialogue occurs. It turns out, Totem (the Gnome Movie Player) doesn't. in 40.100 / 5. libpostproc 53. Metadata: Chapter #0:9: start 2070.109000, end 2307.722000 Each new converted file will have a -AC3 appended at the end of the file name, eg. sub_charenc_parameters.txt 1.100 / 4. Metadata: Chapter #0:2: start 746.287000, end 778.527000 It appears to ignore the 6 in the -ac 6 and just down mixes to 2 tracks. This is simplified but the result is the same. LATIN1 , LATIN2 , ... , LATIN8, LATIN-9, LATIN10, Not every subtitle codec can be used for every video container format!

ぶなしめじ カロリー 写真 4, Bmw F10 地 デジ 感度 6, Nucleo I2c プルアップ 13, Spotify Stockholm 請求 5, Pubgモバイル くねくね 撃ち 12, Bsl Shaders Light 24, リクガメ 床 材 ホコリ 4, チェーン 洗浄液 代用 5, 小学生 歩き方 おかしい 4, インスタ 急に 本人確認 10,

Leave a Reply

Your email address will not be published. Required fields are marked *